59影视资源下载

[百度][七龙珠改布欧篇 61集全][1080P Blu-ray x264 MP3 MKV][国日双语中字][50.5GB]

『龙珠改』,非常适合龙迷收藏,数码修复清晰度爆表。
重要的是有台配/日语双语切换!满足了怀旧龙迷的需求。

因为许多坛友对全网唯一的资源要求太高,没办法,为了让这些坛友又省币又能有全集,特意转发此贴!! 剧情简介:

经历了惊心动魄的沙鲁之战,Z战士更新换代。地球在孙悟和朋友们的守护下,迎来了七年漫长而又短暂的和平岁月。已变成俊朗青年的每天往返于学校,在此期间结识了撒旦的女儿比迪丽。伴随着全世界的呐喊,阔别已久的天下第一武道大会宣布再度召开。悟饭、比迪丽、18号悟天、特兰克斯甚至从另一个世界告假而来的孙悟空等Z战士高调参加比赛,令坐享其成的撒旦战栗不已。而在赛场上,两名奇怪选手的加盟则拉开了地球新一轮危机的帷幕。在此之后,来自外太空的邪恶魔法师巴菲迪登场,他利用邪恶手段复活了被界王神封印的恐怖对手魔人布。Z战士的最恶之战,地球危在旦夕……

编码信息:
General
Unique ID : 221832780894900889242419725965377309540 (0xA6E3708582D9B138B3B9B3A8377A8B64)
Complete name : L:经典动漫收藏七龙珠收藏全集(国日双语)龙珠改魔人布欧1-6135.mkv
Format : Matroska
Format version : Version 4 / Version 2
File size : 765 MiB
Duration : 21 min 44 s
Overall bit rate mode : Variable
Overall bit rate : 4 920 kb/s
Movie name : 灵感工作室荣誉出品 www.lggzs.com
Encoded date : UTC 2016-04-16 13:38:54
Writing application : mkvmerge v8.2.0 ('World of Adventure') 32bit
Writing library : libebml v1.3.1 + libmatroska v1.4.2 Video
ID : 1
Format : AVC
Format/Info : Advanced Video Codec
Format profile : High@L4.1
Format settings, CABAC : Yes
Format settings, ReFrames : 4 frames
Codec ID : V_MPEG4/ISO/AVC
Duration : 21 min 44 s
Bit rate : 4 490 kb/s
Width : 1 920 pixels
Height : 1 080 pixels
Display aspect ratio : 16:9
Frame rate mode : Constant
Frame rate : 23.976 (23976/1000) FPS
Color space : YUV
Chroma subsampling : 4:2:0
Bit depth : 8 bits
Scan type : Progressive
Bits/(Pixel*Frame) : 0.090
Stream size : 699 MiB (91%)
Writing library : x264 core 146 r2538kMod 121396c
Encoding settings : cabac=1 / ref=4 / deblock=1:1:1 / analyse=0x3:0x113 / me=hex / subme=7 / psy=1 / fade_compensate=0.00 / psy_rd=1.00:0.00 / mixed_ref=1 / me_range=16 / chroma_me=1 / trellis=1 / 8x8dct=1 / cqm=0 / deadzone=21,11 / fast_pskip=1 / chroma_qp_offset=-2 / threads=7 / lookahead_threads=1 / sliced_threads=0 / nr=0 / decimate=1 / interlaced=0 / bluray_compat=0 / constrained_intra=0 / fgo=0 / bframes=5 / b_pyramid=2 / b_adapt=1 / b_bias=0 / direct=1 / weightb=1 / open_gop=0 / weightp=2 / keyint=250 / keyint_min=25 / scenecut=40 / intra_refresh=0 / rc_lookahead=40 / rc=crf / mbtree=1 / crf=20.0000 / qcomp=0.60 / qpmin=0 / qpmax=69 / qpstep=4 / ip_ratio=1.40 / aq=1:0.60
Default : Yes
Forced : No Audio #1
ID : 2
Format : MPEG Audio
Format version : Version 2
Format profile : Layer 3
Mode : Joint stereo
Mode extension : Intensity Stereo + MS Stereo
Codec ID : A_MPEG/L3
Codec ID/Hint : MP3
Duration : 21 min 44 s
Bit rate mode : Variable
Bit rate : 108 kb/s
Channel(s) : 2 channels
Sampling rate : 24.0 kHz
Frame rate : 41.667 FPS (576 spf)
Compression mode : Lossy
Stream size : 16.8 MiB (2%)
Title : 国语
Language : Chinese
Default : Yes
Forced : Yes Audio #2
ID : 3
Format : AAC
Format/Info : Advanced Audio Codec
Format profile : LC
Codec ID : A_AAC
Duration : 21 min 44 s
Bit rate : 319 kb/s
Channel(s) : 2 channels
Channel positions : Front: L R
Sampling rate : 48.0 kHz
Frame rate : 46.875 FPS (1024 spf)
Compression mode : Lossy
Stream size : 49.6 MiB (6%)
Title : 日语
Language : Japanese
Default : No
Forced : No Text
ID : 4
Format : UTF-8
Codec ID : S_TEXT/UTF8
Codec ID/Info : UTF-8 Plain Text
Duration : 19 min 12 s
Bit rate : 122 b/s
Count of elements : 266
Stream size : 17.3 KiB (0%)
Language : Chinese
Default : Yes
Forced : No
链接: https://pan.baidu.com/s/1dGHv781
链接: https://pan.baidu.com/s/1FGhLy06IBqUx0Inx2CL74A 密码: iad4

如果下载链接失效或者需要密码,请点击。下载之后,如果格式是PDF或者TS1、mp41等等的后缀,请把格式修改MKV即可观看,如果是.zip或者.rar,请下载到电脑上解压之后观看。

另外单独分享一个针对百度网盘下载不限速的破解版软件,如有需要请单独下载:百度网盘下载不限速软件破解版

如果电影显示过期或者不能下载,请直接扫描上方公众号关注之后,发送想要索取的资源名即可。因平时上班,不能及时回复,但我看到之后一定会第一时间回复你!

此文由 59影视——免注册、免登陆的高清影视剧资源分享站 编辑,未经允许不得转载!:首页 > 热门影视 » [百度][七龙珠改布欧篇 61集全][1080P Blu-ray x264 MP3 MKV][国日双语中字][50.5GB]

相关推荐