59影视资源下载

年轻的教宗 / Il giovane papa / 年轻的教皇




◎译  名 年轻的教宗 / Il giovane papa / 年轻的教皇
◎片  名 The Young Pope
◎年  代 2016
◎产  地 意大利 / 法国 / 西班牙 / 美国 / 英国
◎类  别 剧情
◎语  言 英语 / 意大利语
◎上映日期 2016-09-03(威尼斯电影节) / 2016-10-21(英国) / 2017-01-15(美国)
◎IMDb评分 8.4/10 from 25925 users
◎IMDb链接 http://www.imdb.com/title/tt3655448
◎豆瓣评分 9.1/10 from 16134 users
◎豆瓣链接 https://movie.douban.com/subject/25884125/
◎集  数 10
◎片  长 50分钟
◎导  演 保罗·索伦蒂诺 Paolo Sorrentino
◎编  剧 保罗·索伦蒂诺 Paolo Sorrentino / 托尼·格里森尼 Tony Grisoni / 斯蒂法诺·鲁林 Stefano Rulli / Umberto Contarello
◎主  演 裘德·洛 Jude Law
      黛安·基顿 Diane Keaton
      西尔维奥·奥兰多 Silvio Orlando
      斯科特· 谢泼德 Scott Shepherd
      西西·迪·法兰丝 Cécile De France
      哈维尔·卡马拉 Javier Cámara
      露迪芬·莎妮 Ludivine Sagnier
      托尼·贝尔多瑞利 Toni Bertorelli
      詹姆斯·克伦威尔 James Cromwell
      伊格纳齐奥·欧力瓦 Ignazio Oliva
      塞巴斯蒂安·罗奇 Sebastian Roché
      丹尼尔·维维安 Daniel Vivian
      莎拉·拉扎罗 Sara Lazzaro
      Guy Boyd
      Andre Gregory
      Jan Hoag
      Rayna Tharani


◎标  签 宗教 | 美剧 | 裘德洛 | HBO | 意大利 | 电视剧 | 2016 | 美国

◎简  介  

  裘德·洛主演,《绝美之城》导演保罗·索伦蒂诺执导的八集迷你剧。裘德扮演连尼·贝拉尔多(虚拟的庇护十三世),一个复杂又充满争议的教皇,对贫民满怀怜悯,在与梵蒂冈众臣的对抗中,习得如何驾驭权术。本剧预计15年夏季开拍,Sky、HBO和Canal+三家电视台联合制作。

◎获奖情况  

  第75届金球奖(2018)
  电视类 迷你剧/电视电影最佳男主角(提名) 裘德·洛

  第22届金卫星奖(2018)
  电视部门 最佳迷你剧/电视电影(提名)
  电视部门 迷你剧/电视电影最佳男主角(提名) 裘德·洛

  第4届豆瓣电影年度榜单(2017)
  评分最高的英美剧(新剧)(提名)

  第3届豆瓣电影年度榜单(2016)
  评分最高的英美剧(新剧)(提名)

代码
General
Unique ID                                : 320828502421900880706451140717225047017 (0xF15D526D75BA7E519F5F22FD85B1F3E9)
Complete name                            : The.Young.Pope.S01E01.Episode.1.1080i.BluRay.REMUX.AVC.DTS-HD.MA.5.1-EPSiLON.mkv
Format                                   : Matroska
Format version                           : Version 4 / Version 2
File size                                : 11.7 GiB
Duration                                 : 54mn 27s
Overall bit rate mode                    : Variable
Overall bit rate                         : 30.7 Mbps
Encoded date                             : UTC 2017-01-17 16:23:41
Writing application                      : mkvmerge v9.7.1 ('Pandemonium') 64bit
Writing library                          : libebml v1.3.4 + libmatroska v1.4.5

Video
ID                                       : 1
Format                                   : AVC
Format/Info                              : Advanced Video Codec
Format profile                           : [email protected]
Format settings, CABAC                   : Yes
Format settings, ReFrames                : 4 frames
Format settings, GOP                     : M=3, N=24
Codec ID                                 : V_MPEG4/ISO/AVC
Duration                                 : 54mn 27s
Bit rate mode                            : Variable
Bit rate                                 : 27.2 Mbps
Maximum bit rate                         : 32.0 Mbps
Width                                    : 1 920 pixels
Height                                   : 1 080 pixels
Display aspect ratio                     : 16:9
Frame rate mode                          : Constant
Frame rate                               : 25.000 fps
Standard                                 : PAL
Color space                              : YUV
Chroma subsampling                       : 4:2:0
Bit depth                                : 8 bits
Scan type                                : MBAFF
Scan type, store method                  : Interleaved fields
Scan order                               : Top Field First
Bits/(Pixel*Frame)                       : 0.525
Stream size                              : 10.4 GiB (89%)
Title                                    : MPEG-4 AVC Video / 27237 kbps / 1080i / 25 fps / 16:9 / High Profile 4.1
Language                                 : English
Default                                  : Yes
Forced                                   : No
Color range                              : Limited
Color primaries                          : BT.709
Transfer characteristics                 : BT.709
Matrix coefficients                      : BT.709

Audio
ID                                       : 2
Format                                   : DTS
Format/Info                              : Digital Theater Systems
Format profile                           : MA / Core
Mode                                     : 16
Format settings, Endianness              : Big
Codec ID                                 : A_DTS
Duration                                 : 54mn 27s
Bit rate mode                            : Variable / Constant
Bit rate                                 : 3 404 Kbps / 768 Kbps
Channel(s)                               : 6 channels
Channel positions                        : Front: L C R, Side: L R, LFE
Sampling rate                            : 48.0 KHz
Frame rate                               : 93.750 fps (512 spf)
Bit depth                                : 24 bits
Compression mode                         : Lossless / Lossy
Delay relative to video                  : 8ms
Stream size                              : 1.29 GiB (11%)
Title                                    : DTS-HD Master Audio / 5.1 / 48 kHz / 3404 kbps / 24-bit
Language                                 : English
Default                                  : Yes
Forced                                   : No

Text
ID                                       : 3
Format                                   : PGS
Codec ID                                 : S_HDMV/PGS
Codec ID/Info                            : Picture based subtitle format used on BDs/HD-DVDs
Duration                                 : 52mn 45s
Bit rate                                 : 37.9 Kbps
Count of elements                        : 1138
Stream size                              : 14.3 MiB (0%)
Title                                    : SDH
Language                                 : English
Default                                  : No
Forced                                   : No

Menu
00:00:00.000                             : en:Chapter 1
00:11:40.720                             : en:Chapter 2
00:24:31.400                             : en:Chapter 3
00:41:34.240                             : en:Chapter 4




链接: https://pan.baidu.com/s/1_YVFGuXeGfMcBAA7M0weGw密码: r2x4

如果分享链接失效或者需要密码,请点击。下载之后,如果格式是PDF或者TS1、mp41等等的后缀,请把格式修改MKV即可观看,如果是.zip或者.rar,请下载到电脑上解压之后观看。

另外单独分享一个针对网盘下载的不限速破解版软件,如有需要请单独下载:网盘下载不限速软件破解版

如果电影显示过期或者不能下载,请直接扫描上方公众号关注之后,发送想要索取的资源名即可。因平时上班,不能及时回复,但我看到之后一定会第一时间回复你!

此文由 59影视——免注册、免登陆的高清影视剧资源信息分享站 编辑,未经允许不得转载!:首页 > 电视剧 » 年轻的教宗 / Il giovane papa / 年轻的教皇