59影视资源下载

[百度][七龙珠改 98集全][1080P Blu-ray x264 AAC MKV][台日英法语4语中字][55.4GB]

『龙珠改』,非常适合龙迷收藏,数码修复清晰度爆表。
重要的是有台配/日语/英语/法语4语切换!满足了怀旧龙迷的需求。

因为许多坛友对全网唯一的资源要求太高,没办法,为了让这些坛友又省币又能有全集,特意转发此贴!!
剧情简介:

『龙珠改』是为纪念『龙珠Z』开播20周年,使用最新的数码修补技术进行处理,让Z传说以更加色彩鲜艳的姿态在TV动画上复活。OP与ED曲焕然一新,背景音乐和人物配音也重新录制。剧情方面也更加紧凑,更加贴近漫画。 1. 使用最新的数码修补技术进行画面的处理,色彩更加鲜艳;
2. OP与ED是新制作的;
3. 背景音乐和人物配音也是重新录制的;
4. 剧情方面则更加紧凑,更贴近漫画。
5.OP一直都是《Dragon Soul》,赛亚人来袭到那美克星篇的EP是《Yeah!Break!Care!Break!》,·人造人·沙鲁篇从5月2日播出的55话开始。届时将会更换片尾曲。新ED歌将由05年创建的著名人海(48人分3组)少女团体AKB48分出7人结成Team Dragon来演绎《心の羽根》,队长由Team A的高桥みなみ(19)担任,她的留言也就是参与龙珠很感动之类。
6.《龙珠改》的故事将在沙鲁游戏后结束。

编码信息:
General
Unique ID : 236476326178679187350042578829673173334 (0xB1E7AF0BB8F16CA3AEC094A5A2371156)
Complete name : L:经典动漫收藏七龙珠收藏全集(国日双语)龙珠改1-9803.mkv
Format : Matroska
Format version : Version 4 / Version 2
File size : 581 MiB
Duration : 23 min 6 s
Overall bit rate : 3 514 kb/s
Movie name : www.lggzs.com
Encoded date : UTC 2016-04-20 06:08:09 / UTC 2013-11-02 04:30:14
Writing application : mkvmerge v6.5.0 ('Isn't she lovely') built on Oct 20 2013 12:50:05
Writing library : libebml v1.3.0 + libmatroska v1.4.1 / Lavf55.19.100 Video
ID : 1
Format : AVC
Format/Info : Advanced Video Codec
Format profile : Main@L4.1
Format settings, CABAC : Yes
Format settings, ReFrames : 4 frames
Codec ID : V_MPEG4/ISO/AVC
Duration : 23 min 6 s
Nominal bit rate : 3 003 kb/s
Width : 1 440 pixels
Height : 1 080 pixels
Display aspect ratio : 4:3
Frame rate mode : Constant
Frame rate : 23.976 (24000/1001) FPS
Color space : YUV
Chroma subsampling : 4:2:0
Bit depth : 8 bits
Scan type : Progressive
Bits/(Pixel*Frame) : 0.081
Writing library : x264 core 138 r2345
Encoding settings : cabac=1 / ref=4 / deblock=1:1:1 / analyse=0x1:0x131 / me=hex / subme=7 / psy=1 / psy_rd=0.40:0.00 / mixed_ref=0 / me_range=16 / chroma_me=1 / trellis=1 / 8x8dct=0 / cqm=0 / deadzone=21,11 / fast_pskip=1 / chroma_qp_offset=-2 / threads=3 / lookahead_threads=1 / sliced_threads=0 / nr=0 / decimate=1 / interlaced=0 / bluray_compat=0 / constrained_intra=0 / bframes=5 / b_pyramid=0 / b_adapt=1 / b_bias=0 / direct=3 / weightb=1 / open_gop=0 / weightp=2 / keyint=230 / keyint_min=23 / scenecut=40 / intra_refresh=0 / rc_lookahead=40 / rc=2pass / mbtree=1 / bitrate=3003 / ratetol=1.0 / qcomp=0.60 / qpmin=10 / qpmax=69 / qpstep=4 / cplxblur=20.0 / qblur=0.5 / vbv_maxrate=24000 / vbv_bufsize=24000 / nal_hrd=none / ip_ratio=1.40 / aq=1:0.60
Language : Japanese
Default : Yes
Forced : No
Encoded date : UTC 2009-12-11 11:25:44
HANDLER_NAME : GPAC ISO Video Handler Audio #1
ID : 3
Format : AAC
Format/Info : Advanced Audio Codec
Format profile : HE-AAC / LC
Codec ID : A_AAC
Duration : 23 min 6 s
Channel(s) : 2 channels
Channel positions : Front: L R
Sampling rate : 48.0 kHz / 24.0 kHz
Frame rate : 23.438 FPS (1024 spf)
Compression mode : Lossy
Delay relative to video : 240 ms
Language : Chinese
Default : Yes
Forced : No Audio #2
ID : 4
Format : AAC
Format/Info : Advanced Audio Codec
Format profile : HE-AAC / LC
Codec ID : A_AAC
Duration : 23 min 6 s
Channel(s) : 2 channels
Channel positions : Front: L R
Sampling rate : 48.0 kHz / 24.0 kHz
Frame rate : 23.438 FPS (1024 spf)
Compression mode : Lossy
Delay relative to video : 240 ms
Language : Japanese
Default : No
Forced : No Audio #3
ID : 5
Format : AC-3
Format/Info : Audio Coding 3
Format settings, Endianness : Big
Codec ID : A_AC3
Duration : 23 min 6 s
Bit rate mode : Constant
Bit rate : 192 kb/s
Channel(s) : 2 channels
Channel positions : Front: L R
Sampling rate : 48.0 kHz
Frame rate : 31.250 FPS (1536 spf)
Bit depth : 16 bits
Compression mode : Lossy
Delay relative to video : 5 s 0 ms
Stream size : 31.7 MiB (5%)
Title : AC3 2.0 [192 Kbps]
Language : French
Service kind : Complete Main
Default : No
Forced : No Audio #4
ID : 6
Format : AC-3
Format/Info : Audio Coding 3
Format settings, Endianness : Big
Codec ID : A_AC3
Duration : 23 min 6 s
Bit rate mode : Constant
Bit rate : 192 kb/s
Channel(s) : 6 channels
Channel positions : Front: L C R, Side: L R, LFE
Sampling rate : 48.0 kHz
Frame rate : 31.250 FPS (1536 spf)
Bit depth : 16 bits
Compression mode : Lossy
Stream size : 31.7 MiB (5%)
Title : AC3 2.0 [192 Kbps]
Language : English
Service kind : Complete Main
Default : No
Forced : No Text
ID : 2
Format : UTF-8
Codec ID : S_TEXT/UTF8
Codec ID/Info : UTF-8 Plain Text
Default : Yes
Forced : No Menu
00:00:00.000 : fr:chapter 01
00:00:30.030 : fr:chapter 02
00:01:55.115 : fr:chapter 03
00:11:45.122 : fr:chapter 04
00:21:35.087 : fr:chapter 05
00:22:35.147 : fr:chapter 06
影片截图:

链接: [url]http://pan.baidu.com/s/1qX7FEjE
链接: https://pan.baidu.com/s/1Ep0PqjxCizoojIgYuMxlEw 密码: e8ew

如果下载链接失效或者需要密码,请点击。下载之后,如果格式是PDF或者TS1、mp41等等的后缀,请把格式修改MKV即可观看,如果是.zip或者.rar,请下载到电脑上解压之后观看。

另外单独分享一个针对百度网盘下载不限速的破解版软件,如有需要请单独下载:百度网盘下载不限速软件破解版

如果电影显示过期或者不能下载,请直接扫描上方公众号关注之后,发送想要索取的资源名即可。因平时上班,不能及时回复,但我看到之后一定会第一时间回复你!

此文由 59影视——免注册、免登陆的高清影视剧资源分享站 编辑,未经允许不得转载!:首页 > 热门影视 » [百度][七龙珠改 98集全][1080P Blu-ray x264 AAC MKV][台日英法语4语中字][55.4GB]

相关推荐